osu file format v14

[General]
AudioFilename: Shine!!.mp3
AudioLeadIn: 1500
PreviewTime: 63947
Countdown: 0
SampleSet: Soft
StackLeniency: 0.7
Mode: 0
LetterboxInBreaks: 0
WidescreenStoryboard: 0

[Editor]
DistanceSpacing: 1.2
BeatDivisor: 4
GridSize: 4
TimelineZoom: 1.9

[Metadata]
Title:Shine!!
TitleUnicode:Shine!!
Artist:CINDERELLA PROJECT
ArtistUnicode:CINDERELLA PROJECT
Creator:Karen
Version:Insane
Source:アイドルマスター シンデレラガールズ
Tags:idolmaster idolm@ster im@s TV Size TT_Mouse yf_bmp IamKwaN
BeatmapID:779958
BeatmapSetID:354019

[Difficulty]
HPDrainRate:6
CircleSize:4
OverallDifficulty:8
ApproachRate:9
SliderMultiplier:1.8
SliderTickRate:1

[Events]
//Background and Video events
0,0,"BG.jpg",0,0
//Break Periods
//Storyboard Layer 0 (Background)
//Storyboard Layer 1 (Fail)
//Storyboard Layer 2 (Pass)
//Storyboard Layer 3 (Foreground)
//Storyboard Sound Samples

[TimingPoints]
585,344.827586206897,4,2,1,50,1,0
1964,-142.857142857143,4,2,1,50,0,0
12998,-142.857142857143,4,2,1,5,0,0
14378,-100,4,2,1,70,0,0
25067,-100,4,2,1,65,0,0
25240,-100,4,2,1,60,0,0
25412,-100,4,2,1,55,0,0
25585,-100,4,2,1,50,0,0
25757,-100,4,2,1,45,0,0
25929,-100,4,2,1,40,0,0
26102,344.827586206897,4,2,1,60,1,0
30757,-100,4,2,1,50,0,0
31102,-100,4,2,1,40,0,0
31619,-100,4,2,1,60,0,0
34377,-100,4,2,1,70,0,0
37136,-100,4,2,1,65,0,0
47308,-100,4,2,1,60,0,0
47481,-100,4,2,1,55,0,0
47653,-100,4,2,1,50,0,0
47826,-100,4,2,1,45,0,0
47998,-100,4,2,1,40,0,0
48171,-125,4,2,1,50,0,0
53688,-100,4,2,1,60,0,0
61964,-100,4,2,1,70,0,0
63343,-100,4,2,1,50,0,0
64033,-100,4,2,1,30,0,0
64722,-100,4,2,1,75,0,1
89033,-100,4,2,1,75,0,0

[Colours]
Combo1 : 255,128,191
Combo2 : 255,187,119
Combo3 : 181,181,255
Combo4 : 255,255,147

[HitObjects]
234,170,1274,5,0,0:0:0:0:
393,198,1447,1,0,0:0:0:0:
305,252,1619,1,0,0:0:0:0:
376,99,1791,1,0,0:0:0:0:
234,170,1964,6,0,L|155:171,1,62.9999980773926,2|0,0:0|0:0,0:0:0:0:
393,198,2309,2,0,L|456:198,1,62.9999980773926,2|0,0:0|0:0,0:0:0:0:
305,252,2653,2,0,L|307:333,1,62.9999980773926,2|0,0:0|0:0,0:0:0:0:
376,99,2998,2,0,L|374:36,1,62.9999980773926,2|0,0:0|0:0,0:0:0:0:
466,143,3343,6,0,B|445:188|395:209|350:197,1,125.999996154785,2|0,0:0|0:0,0:0:0:0:
300,127,3860,1,0,0:0:0:0:
208,328,4033,2,0,B|235:309|235:309|272:352|338:359|386:299,1,188.999994232178,2|0,0:0|0:0,0:0:0:0:
305,252,4722,1,2,0:0:0:0:
256,192,4809,12,2,6102,0:0:0:0:
204,120,6447,5,0,0:0:0:0:
192,92,6791,5,2,0:0:0:0:
341,40,6964,1,0,0:0:0:0:
277,176,7136,1,0,0:0:0:0:
341,40,7309,1,0,0:0:0:0:
277,176,7481,6,0,B|243:215|186:219|147:190,1,125.999996154785,2|0,0:0|0:0,0:0:0:0:
66,126,7998,1,2,0:0:0:0:
56,152,8516,2,0,L|61:232,1,62.9999980773926,2|0,0:0|0:0,0:0:0:0:
160,273,8860,6,0,B|198:244|249:248|283:275,1,125.999996154785,2|0,0:0|0:0,0:0:0:0:
356,363,9378,1,2,0:0:0:0:
370,342,9895,1,2,0:0:0:0:
447,205,10240,6,0,L|301:179,1,125.999996154785,2|0,0:0|0:0,0:0:0:0:
251,120,10757,2,0,B|232:99|225:72|230:46,1,62.9999980773926,,,0:0:0:0:
358,109,11102,2,0,B|365:136|359:162|344:182,1,62.9999980773926,,,0:0:0:0:
251,120,11447,1,0,0:0:0:0:
354,5,11619,6,0,L|399:1,2,31.4999990386963,2|2|2,0:0|0:0|0:0,0:0:0:0:
256,192,11878,12,0,12998,0:0:0:0:
286,181,14378,5,4,0:0:0:0:
138,115,14550,1,0,0:0:0:0:
265,15,14722,1,8,0:0:0:0:
204,166,14895,2,0,B|172:208|111:214|67:179|57:133,1,180,4|0,0:0|0:0,0:0:0:0:
187,42,15412,1,8,0:0:0:0:
286,181,15585,1,0,0:0:0:0:
138,115,15757,5,4,0:0:0:0:
356,88,15929,1,0,0:0:0:0:
228,252,16102,1,8,0:0:0:0:
277,45,16274,2,0,L|467:37,1,180,4|0,0:0|0:0,0:0:0:0:
454,145,16791,1,2,0:0:0:0:
448,171,16878,1,2,0:0:0:0:
443,197,16964,1,2,0:0:0:0:
437,223,17050,1,2,0:0:0:0:
430,249,17136,6,0,B|380:303|295:302|247:247,1,180,4|8,0:0|0:0,0:0:0:0:
181,197,17653,1,0,0:0:0:0:
340,179,17826,1,2,0:0:0:0:
266,264,17998,2,0,L|265:363,1,90,0|8,0:0|0:0,0:0:0:0:
103,267,18343,6,0,B|57:218|67:140|122:102,1,180,,,0:0:0:0:
181,197,18860,1,8,0:0:0:0:
123,374,19033,1,0,0:0:0:0:
23,333,19205,1,2,0:0:0:0:
158,360,19378,1,0,0:0:0:0:
103,267,19550,1,8,0:0:0:0:
189,349,19722,1,0,0:0:0:0:
181,197,19895,6,0,B|143:155|81:148|32:177|10:220,1,180,2|8,0:0|0:0,0:0:0:0:
262,264,20412,2,0,B|301:226|305:167|274:122|230:105,1,180,,,0:0:0:0:
181,197,20929,1,8,0:0:0:0:
369,248,21102,6,0,L|485:245,1,90,0|2,0:0|0:0,0:0:0:0:
489,101,21447,1,0,0:0:0:0:
388,138,21619,1,8,0:0:0:0:
489,101,21791,1,0,0:0:0:0:
369,248,21964,1,2,0:0:0:0:
489,101,22136,1,0,0:0:0:0:
309,56,22309,1,2,0:0:0:0:
283,45,22395,1,2,0:0:0:0:
256,42,22481,1,2,0:0:0:0:
229,45,22567,1,2,0:0:0:0:
203,52,22653,5,12,0:0:0:0:
137,247,22826,1,2,0:0:0:0:
0,91,22998,1,2,0:0:0:0:
169,152,23171,5,8,0:0:0:0:
67,171,23343,1,2,0:0:0:0:
102,72,23516,1,2,0:0:0:0:
348,206,23688,5,8,0:0:0:0:
137,247,23861,1,2,0:0:0:0:
203,52,24033,1,2,0:0:0:0:
241,228,24205,5,8,0:0:0:0:
169,152,24378,1,2,0:0:0:0:
275,130,24550,1,2,0:0:0:0:
314,304,24722,5,8,0:0:0:0:
137,247,24895,1,2,0:0:0:0:
112,235,24981,1,2,0:0:0:0:
91,217,25067,1,2,0:0:0:0:
76,193,25153,1,2,0:0:0:0:
68,166,25240,1,2,0:0:0:0:
69,139,25326,1,2,0:0:0:0:
73,112,25412,6,0,L|15:112,1,45,2|2,0:0|0:0,0:0:0:0:
169,152,25585,1,10,0:0:0:0:
169,152,25671,1,2,0:0:0:0:
169,152,25757,2,0,L|176:88,1,45,10|2,0:0|0:0,0:0:0:0:
279,85,25929,2,0,L|274:129,1,45,10|2,0:0|0:0,0:0:0:0:
363,214,26102,6,0,L|387:34,1,180,4|8,0:0|0:1,0:0:0:0:
492,11,26619,1,0,0:0:0:0:
487,118,26791,2,0,B|452:134|413:132|382:115,1,90,2|0,0:0|0:0,0:0:0:0:
279,85,27136,1,8,0:1:0:0:
363,214,27309,1,0,0:0:0:0:
258,189,27481,5,2,0:0:0:0:
420,305,27653,2,0,L|509:279,2,90,0|8|0,0:0|0:1|0:0,0:0:0:0:
311,296,28171,1,2,0:0:0:0:
154,165,28343,1,0,0:0:0:0:
126,269,28515,1,8,0:1:0:0:
173,365,28688,1,0,0:0:0:0:
258,189,28860,6,0,B|269:154|258:118|233:94,1,90,2|0,0:0|0:0,0:0:0:0:
154,165,29205,1,8,0:1:0:0:
269,11,29378,2,0,L|366:-1,1,90,0|2,0:0|0:0,0:0:0:0:
487,91,29722,2,0,L|397:102,1,90,0|8,0:0|0:1,0:0:0:0:
258,189,30067,1,0,0:0:0:0:
303,102,30240,5,2,0:0:0:0:
142,121,30412,2,0,L|159:188,5,45,2|2|2|2|2|2,0:0|0:0|0:0|0:0|0:0|0:0,0:0:0:0:
258,189,30929,1,2,0:0:0:0:
283,197,31015,1,2,0:0:0:0:
306,211,31101,1,2,0:0:0:0:
324,231,31187,1,2,0:0:0:0:
338,254,31274,2,0,L|412:261,1,45,2|2,0:0|0:0,0:0:0:0:
381,344,31447,2,0,L|455:351,1,45,8|2,0:3|0:0,0:0:0:0:
451,202,31619,5,2,0:0:0:0:
242,281,31791,2,0,L|138:286,1,90,0|8,0:0|0:1,0:0:0:0:
70,228,32136,1,0,0:0:0:0:
71,55,32308,1,2,0:0:0:0:
163,19,32481,1,0,0:0:0:0:
259,42,32653,1,8,0:1:0:0:
99,136,32826,6,0,B|71:110|63:72|75:39,1,90,0|2,0:0|0:0,0:0:0:0:
191,186,33171,1,0,0:0:0:0:
259,42,33343,1,8,0:1:0:0:
99,136,33516,1,0,0:0:0:0:
285,138,33688,2,0,B|322:147|322:147|354:122|417:109|481:140,1,180,2|8,0:0|0:1,0:0:0:0:
380,282,34205,1,2,0:0:0:0:
373,308,34291,1,2,0:0:0:0:
368,334,34378,6,0,B|318:301|317:229|366:187|421:190|455:218,1,225,4|0,0:0|0:0,0:0:0:0:
380,282,34895,2,0,L|171:280,1,180,4|0,0:0|0:0,0:0:0:0:
59,185,35412,1,0,0:0:0:0:
59,185,35498,1,0,0:0:0:0:
59,185,35585,1,0,0:0:0:0:
128,358,35757,5,2,0:0:0:0:
24,297,35929,1,0,0:0:0:0:
173,162,36102,2,0,L|293:151,1,90,8|2,0:1|0:0,0:0:0:0:
282,135,36360,1,2,0:0:0:0:
298,113,36446,1,2,0:0:0:0:
506,109,36619,1,8,0:1:0:0:
394,61,36791,2,2,B|418:107|406:161|371:193,1,135,,,0:0:0:0:
342,227,37136,6,0,L|457:220,1,90,4|0,0:0|0:0,0:0:0:0:
268,298,37481,2,0,B|243:270|234:233|241:199,1,90,,,0:0:0:0:
372,328,37826,1,2,0:0:0:0:
182,366,37998,2,0,L|39:378,1,135,,,0:0:0:0:
22,340,38343,6,0,B|50:306|53:261|35:225,1,90,8|0,0:0|0:0,0:0:0:0:
5,122,38688,1,0,0:0:0:0:
166,196,38860,1,2,0:0:0:0:
115,100,39033,1,0,0:0:0:0:
128,295,39205,1,0,0:0:0:0:
257,155,39378,1,0,0:0:0:0:
64,208,39550,1,8,0:0:0:0:
230,278,39722,1,0,0:0:0:0:
345,94,39895,6,0,B|299:43|220:44|174:93,1,180,2|2,0:0|0:0,0:0:0:0:
370,200,40412,2,0,B|426:191|466:142|465:84|437:44,1,180,0|2,0:0|0:0,0:0:0:0:
345,94,40929,1,0,0:0:0:0:
370,200,41102,6,0,B|429:211|429:211|393:274|448:348,1,180,8|0,0:0|0:0,0:0:0:0:
315,280,41619,2,0,B|268:249|209:255|170:290,1,135,8|0,0:0|0:0,0:0:0:0:
156,306,41964,1,2,0:0:0:0:
266,189,42136,1,0,0:0:0:0:
247,353,42309,1,2,0:0:0:0:
247,353,42481,1,2,0:0:0:0:
165,206,42653,6,0,B|108:202|58:241|46:298|66:344,1,180,4|8,0:0|0:0,0:0:0:0:
74,213,43171,2,0,L|73:121,1,90,0|2,0:0|0:0,0:0:0:0:
162,61,43516,1,0,0:0:0:0:
73,123,43688,1,8,0:0:0:0:
61,15,43860,1,0,0:0:0:0:
262,110,44033,6,0,B|279:150|276:192|258:227,1,90,2|0,0:0|0:0,0:0:0:0:
391,336,44378,2,0,B|374:296|377:254|395:219,1,90,8|0,0:0|0:0,0:0:0:0:
459,108,44722,1,2,0:0:0:0:
483,213,44895,1,0,0:0:0:0:
335,25,45067,1,8,0:0:0:0:
262,110,45240,2,0,L|255:42,1,45,,,0:0:0:0:
335,25,45412,6,0,B|384:45|384:45|409:10|465:-3|518:20,1,180,4|2,0:0|0:0,0:0:0:0:
459,108,45929,2,0,B|435:145|387:155|351:134,1,90,6|0,0:0|0:0,0:0:0:0:
262,110,46274,2,0,B|239:175|276:245|341:264,1,180,8|0,0:0|0:0,0:0:0:0:
214,340,46791,6,0,L|100:347,1,90,2|0,0:0|0:0,0:0:0:0:
52,264,47136,1,2,0:0:0:0:
42,239,47222,1,2,0:0:0:0:
38,212,47309,1,2,0:0:0:0:
42,185,47395,1,2,0:0:0:0:
47,158,47481,5,2,0:0:0:0:
59,134,47567,1,2,0:0:0:0:
79,151,47653,1,2,0:0:0:0:
99,168,47740,1,2,0:0:0:0:
124,176,47826,1,2,0:0:0:0:
150,180,47912,1,2,0:0:0:0:
176,178,47998,1,2,0:0:0:0:
202,172,48085,1,2,0:0:0:0:
220,160,48171,6,0,B|257:141|257:141|244:241|331:310|440:234,1,288,4|0,0:0|0:0,0:0:0:0:
435,164,49033,1,0,0:0:0:0:
349,174,49205,1,2,0:0:0:0:
306,249,49378,1,0,0:0:0:0:
496,277,49550,6,0,B|511:228|483:178|436:164,1,144,8|0,0:1|0:0,0:0:0:0:
415,248,50067,1,0,0:0:0:0:
363,317,50240,2,0,B|338:338|305:342|277:330,1,72,2|0,0:0|0:0,0:0:0:0:
236,238,50585,2,0,B|266:232|295:240|317:256,1,72,8|0,0:0|0:0,0:0:0:0:
188,316,50929,6,0,B|147:293|129:243|144:198|176:172,1,144,2|0,0:0|0:0,0:0:0:0:
217,127,51447,1,8,0:1:0:0:
217,127,51619,1,2,0:0:0:0:
140,87,51791,2,0,L|51:69,2,72,0|8|0,0:0|0:0|0:0,0:0:0:0:
291,168,52309,6,0,B|315:128|306:78|271:47|231:40,1,144,2|0,0:0|0:0,0:0:0:0:
328,88,52826,1,8,0:1:0:0:
414,88,52998,1,2,0:0:0:0:
493,52,53171,1,0,0:0:0:0:
440,171,53343,2,0,B|420:209|432:255|465:279,1,108,4|0,0:0|0:0,0:0:0:0:
420,245,53688,6,0,L|228:250,1,180,4|0,0:0|0:0,0:0:0:0:
162,324,54205,1,2,0:0:0:0:
313,321,54378,2,0,B|348:284|353:229|330:185|293:161,1,180,2|0,0:0|0:0,0:0:0:0:
188,145,54895,1,0,0:0:0:0:
78,255,55067,6,0,B|124:242|158:280|158:280|198:239|246:251,1,180,2|0,0:0|0:0,0:0:0:0:
420,245,55585,1,2,0:0:0:0:
188,145,55757,1,2,0:0:0:0:
176,135,56102,1,0,0:0:0:0:
176,135,56274,1,0,0:0:0:0:
337,53,56447,5,4,0:0:0:0:
272,198,56619,1,0,0:0:0:0:
340,73,56791,1,0,0:0:0:0:
163,124,56964,2,0,B|121:166|57:173|7:143|-17:97,1,180,4|0,0:0|0:0,0:0:0:0:
81,50,57481,1,0,0:0:0:0:
81,240,57653,6,0,B|129:245|187:214|187:214|184:304|297:329,1,270,4|2,0:0|0:0,0:0:0:0:
364,143,58343,1,0,0:0:0:0:
286,220,58516,1,2,0:0:0:0:
457,293,58688,1,0,0:0:0:0:
281,325,58860,2,0,L|164:331,1,90,,,0:0:0:0:
371,256,59205,5,4,0:0:0:0:
432,384,59378,1,0,0:0:0:0:
281,325,59550,1,0,0:0:0:0:
455,182,59722,2,0,B|482:129|461:65|408:35|356:42,1,180,4|0,0:0|0:0,0:0:0:0:
286,220,60240,1,0,0:0:0:0:
204,169,60412,6,0,B|235:121|297:105|350:131|374:175,1,180,4|0,0:0|0:0,0:0:0:0:
198,266,60929,1,2,0:0:0:0:
204,169,61102,2,0,L|184:68,1,90,2|0,0:0|0:0,0:0:0:0:
103,186,61447,1,0,0:0:0:0:
286,220,61619,1,2,0:0:0:0:
230,6,61791,2,0,B|193:-5|155:-1|124:15,1,90,0|2,0:0|0:0,0:0:0:0:
204,169,62136,5,2,0:0:0:0:
347,35,62309,1,2,0:0:0:0:
382,238,62481,1,2,0:0:0:0:
235,61,62653,1,2,0:0:0:0:
415,127,62826,1,2,0:0:0:0:
275,262,62998,1,2,0:0:0:0:
347,35,63171,1,2,0:0:0:0:
165,175,63343,5,10,0:0:0:0:
412,266,63516,1,10,0:0:0:0:
359,0,63688,1,10,0:0:0:0:
275,262,64033,5,2,0:0:0:0:
188,325,64205,1,2,0:0:0:0:
80,313,64378,1,2,0:0:0:0:
188,325,64550,1,2,0:0:0:0:
275,262,64722,6,0,B|311:217|312:155|282:107|238:83,1,180,4|8,0:0|0:0,0:0:0:0:
156,68,65240,1,0,0:0:0:0:
52,98,65412,2,0,B|36:63|38:25|52:-7,1,90,2|0,0:0|0:0,0:0:0:0:
127,170,65757,2,0,B|143:205|141:243|127:275,1,90,8|0,0:0|0:0,0:0:0:0:
52,369,66102,6,0,L|181:363,1,90,2|0,0:0|0:0,0:0:0:0:
321,297,66447,2,0,L|231:301,1,90,8|0,0:0|0:0,0:0:0:0:
396,372,66791,1,2,0:0:0:0:
479,215,66964,1,0,0:0:0:0:
321,297,67136,1,8,0:0:0:0:
495,324,67309,1,0,0:0:0:0:
370,200,67481,6,0,B|354:164|356:125|373:93,1,90,2|0,0:0|0:0,0:0:0:0:
489,28,67826,2,0,L|288:32,1,180,8|2,0:0|0:0,0:0:0:0:
166,210,68516,1,8,0:0:0:0:
97,126,68688,1,0,0:0:0:0:
64,228,68860,6,0,L|61:335,1,90,2|0,0:0|0:0,0:0:0:0:
157,367,69205,1,8,0:0:0:0:
238,295,69378,2,0,B|281:284|323:286|362:296,1,90,0|2,0:0|0:0,0:0:0:0:
492,371,69722,1,0,0:0:0:0:
492,371,69809,1,0,0:0:0:0:
492,371,69895,1,8,0:0:0:0:
384,379,70067,1,0,0:0:0:0:
434,283,70240,6,0,B|463:252|466:207|445:171|414:152,1,135,2|0,0:0|0:0,0:0:0:0:
381,226,70584,2,0,B|425:256|486:241|513:189|503:143,1,180,4|2,0:0|0:0,0:0:0:0:
329,118,71102,1,0,0:0:0:0:
278,213,71274,1,8,0:0:0:0:
278,213,71447,6,0,L|276:312,1,90,0|2,0:0|0:0,0:0:0:0:
381,226,71791,1,0,0:0:0:0:
329,118,71964,2,0,B|266:91|194:127|175:192,1,180,8|2,0:0|0:0,0:0:0:0:
164,287,72481,1,0,0:0:0:0:
81,154,72653,1,8,0:0:0:0:
278,213,72826,1,0,0:0:0:0:
164,287,72998,6,0,L|167:140,1,135,4|0,0:0|0:0,0:0:0:0:
183,122,73343,1,2,0:0:0:0:
264,348,73516,5,2,0:0:0:0:
264,348,73860,1,2,0:0:0:0:
264,348,74205,6,0,B|205:310|132:319|83:361,1,180,4|0,0:0|0:0,0:0:0:0:
4,292,74722,1,8,0:0:0:0:
57,197,74895,1,8,0:0:0:0:
57,197,74981,1,8,0:0:0:0:
57,197,75067,2,0,L|159:191,1,90,8|0,0:0|0:0,0:0:0:0:
289,94,75412,1,8,0:0:0:0:
232,247,75585,1,0,0:0:0:0:
185,46,75757,6,0,B|137:26|86:30|43:50,1,135,4|0,0:0|0:0,0:0:0:0:
76,120,76102,2,0,B|111:105|149:109|179:128,1,90,8|0,0:0|0:0,0:0:0:0:
150,291,76447,2,0,B|122:267|112:231|119:197,1,90,2|0,0:0|0:0,0:0:0:0:
328,235,76791,1,8,0:0:0:0:
328,235,77136,6,0,B|348:277|340:323|314:356,1,90,2|0,0:0|0:0,0:0:0:0:
261,140,77481,2,0,B|292:119|329:116|362:127,1,90,8|0,0:0|0:0,0:0:0:0:
245,286,77826,1,2,0:0:0:0:
245,286,77998,1,0,0:0:0:0:
426,268,78171,2,0,B|434:233|428:198|411:170,1,90,8|0,0:0|0:0,0:0:0:0:
232,50,78516,6,0,L|432:36,1,180,2|8,0:0|0:0,0:0:0:0:
216,155,79205,1,2,0:0:0:0:
134,0,79378,1,0,0:0:0:0:
111,171,79550,1,8,0:0:0:0:
232,50,79722,1,0,0:0:0:0:
65,76,79895,6,0,B|9:108|-7:179|26:231,1,180,2|8,0:0|0:0,0:0:0:0:
26,232,80412,1,0,0:0:0:0:
109,301,80585,2,0,L|228:295,1,90,2|0,0:0|0:0,0:0:0:0:
285,232,80929,1,8,0:0:0:0:
194,172,81102,1,0,0:0:0:0:
125,327,81274,6,0,L|314:317,1,180,4|8,0:0|0:0,0:0:0:0:
389,250,81791,1,0,0:0:0:0:
194,172,81964,1,8,0:0:0:0:
285,232,82136,1,0,0:0:0:0:
313,54,82309,1,8,0:0:0:0:
205,63,82481,1,0,0:0:0:0:
361,153,82653,6,0,B|421:125|442:51|406:-4,1,180,8|8,0:0|0:0,0:0:0:0:
194,172,83343,1,8,0:0:0:0:
86,293,83516,1,8,0:0:0:0:
86,293,83602,1,8,0:0:0:0:
86,293,83688,1,8,0:0:0:0:
37,196,83860,1,0,0:0:0:0:
19,325,84033,6,0,B|45:380|119:392|169:346|172:289|146:251,1,225,4|0,0:0|0:0,0:0:0:0:
86,293,84550,2,0,B|134:375|134:375|253:369,1,180,4|0,0:0|0:0,0:0:0:0:
325,353,85067,2,0,B|364:343|392:313|401:277,1,90,4|0,0:0|0:0,0:0:0:0:
295,159,85412,6,0,B|280:191|284:227|302:254,1,90,8|0,0:0|0:0,0:0:0:0:
419,117,85757,2,0,B|451:132|471:162|475:195,1,90,8|0,0:0|0:0,0:0:0:0:
269,78,86102,2,0,B|236:88|214:117|211:148,1,90,8|0,0:0|0:0,0:0:0:0:
382,43,86447,2,0,B|419:27|461:37|486:64,1,90,8|0,0:0|0:0,0:0:0:0:
377,191,86791,5,4,0:0:0:0:
306,0,86964,1,0,0:0:0:0:
419,117,87136,1,0,0:0:0:0:
195,46,87309,1,8,0:0:0:0:
195,46,87653,1,8,0:0:0:0:
200,154,87826,1,8,0:0:0:0:
96,123,87998,2,0,B|59:118|24:126|-6:142,1,90,,,0:0:0:0:
137,243,88343,5,2,0:0:0:0:
137,243,88429,1,2,0:0:0:0:
137,243,88516,2,0,L|208:238,1,45,2|2,0:0|0:0,0:0:0:0:
200,154,88688,1,8,0:0:0:0:
325,332,88860,1,8,0:0:0:0:
41,351,89033,1,8,0:0:0:0:
